Verified torrent The Darkest Minds 2018 NEW 720p HDCAM x264 [MW]


    Seeders : 37      Leechers : 15

Hash :CE798BA53D90B81A1D9D7D06E98E510A5A440ED4
Added :13 days ago by MovieFreakVerified torrent uploader in Movies
Size :1.16 GB
Stream :Watch Full Movie Online @ Movie4u
Share :


The Darkest Minds 2018 NEW 720p HDCAM x264 [MW]
Download Direct And Anonymously







Warning! Do not Download Torrents Without a VPN!
Your IP Address is 185.162.9.168.   And Location is Netherlands, Naaldwijk
Your Internet Provider and Government can track your torrent Activity!  Hide your IP ADDRESS with a VPN!
We Strongly Recommend Using Best Cheapest VPN to Anonymize your Torrenting.

Note :

Please Update (Trackers Info) Before Start Torrents Downloading to See Updated Seeders And Leechers for Batter Download Speed.

Trackers List

Tracker NameLast CheckStatusSeedersLeechers
udp://tracker.pirateparty.gr:6969/announce11 days agosuccess3715
udp://tracker.coppersurfer.tk:80/announce11 days agosuccess3715
udp://tracker.coppersurfer.tk:6969/announce11 days agosuccess3715
udp://tracker.opentrackr.org:1337/announce11 days agosuccess189
udp://tracker.vanitycore.co:6969/announce11 days agosuccess167
udp://open.stealth.si:80/announce11 days agosuccess154
udp://bt.xxx-tracker.com:2710/announce11 days agosuccess25
udp://exodus.desync.com:6969/announce11 days agosuccess10
udp://tracker.zer0day.to:1337/announce11 days agosuccess00
udp://tracker.cypherpunks.ru:6969/announce11 days agosuccess00
udp://asnet.pw:2710/announce11 days agosuccess00
http://bt.acg.gg:1578/announce11 days agosuccess00
udp://ipv4.tracker.harry.lu:80/announce11 days agosuccess00
udp://ipv6.tracker.harry.lu:80/announce11 days agosuccess00
udp://tracker.trackerfix.com:80/announce11 days agosuccess00
udp://glotorrents.pw:6969/announce11 days agosuccess00
udp://p4p.arenabg.ch:1337/announce11 days agosuccess00




Torrent File Content (1 file)


The Darkest Minds 2018 NEW 720p HDCAM x264 [MW]
     The Darkest Minds 2018 NEW 720p HDCAM x264 [MW].mkv -
1.16 GB



Description




[url=http://pichub.site/image/OWjaJ]
http://pichub.site/images/2018/08/08/darkest.md.jpg
[/url]


General
Format : Matroska
Format version : Version 4 / Version 2
File size : 1.16 GiB
Duration : 1 h 37 min
Overall bit rate : 1 692 kb/s

Video
ID : 1
Format : AVC
Format/Info : Advanced Video Codec
Format profile : [email protected]
Format settings : CABAC / 4 Ref Frames
Format settings, CABAC : Yes
Format settings, RefFrames : 4 frames
Codec ID : V_MPEG4/ISO/AVC
Duration : 1 h 37 min
Bit rate : 1 500 kb/s
Width : 1 280 pixels
Height : 534 pixels
Display aspect ratio : 2.40:1
Frame rate mode : Constant
Frame rate : 29.970 (30000/1001) FPS
Color space : YUV
Chroma subsampling : 4:2:0
Bit depth : 8 bits
Scan type : Progressive
Bits/(Pixel*Frame) : 0.073
Stream size : 1.02 GiB (88%)
Writing library : x264 core 155 r2901 7d0ff22
Default : Yes
Forced : No

Audio
ID : 2
Format : AAC
Format/Info : Advanced Audio Codec
Format profile : LC
Codec ID : A_AAC-2
Duration : 1 h 37 min
Bit rate : 192 kb/s
Channel(s) : 2 channels
Channel positions : Front: L R
Sampling rate : 48.0 kHz
Frame rate : 46.875 FPS (1024 SPF)
Compression mode : Lossy
Stream size : 135 MiB (11%)
Language : English
Default : Yes
Forced : No


Click To Enlarge Image

[url=http://pichub.site/image/Ob45h]
http://pichub.site/images/2018/08/08/00_02_19.md.jpg
[/url]
[url=http://pichub.site/image/OWqz5]
http://pichub.site/images/2018/08/08/00_08_07.md.jpg
[/url]
[url=http://pichub.site/image/ObMwr]
http://pichub.site/images/2018/08/08/00_18_02.md.jpg
[/url]
[url=http://pichub.site/image/Obfjj]
http://pichub.site/images/2018/08/08/00_33_05.md.jpg
[/url]
[url=http://pichub.site/image/ObY0k]
http://pichub.site/images/2018/08/08/00_49_37.md.jpg
[/url]
[url=http://pichub.site/image/ObaTQ]
http://pichub.site/images/2018/08/08/00_58_42.md.jpg
[/url]
[url=http://pichub.site/image/ObOEv]
http://pichub.site/images/2018/08/08/01_27_06.md.jpg
[/url]


Related torrents

Torrent NameAddedSizeSeedLeechHealth
14 days ago - in Movies855.54 MB1712
14 days ago - in Movies2.44 GB2813
16 days ago - in Movies765.77 MB137
14 days ago - in Movies1.31 GB2961
14 days ago - in Movies773.17 MB146
14 days ago - in Movies773.17 MB42

Note :

Feel free to post any comments about this torrent, including links to Subtitle, samples, screenshots, or any other relevant information. Please Dont Download anything from Comments, And Links to Streaming Sites like Watch Online The Darkest Minds 2018 NEW 720p HDCAM x264 [MW] Full Movie, Fmovies, 123Movies, Putlocker, Netflix, etc.

Comments (0 Comments)




Please login or create a FREE account to post comments

Latest Searches

Sitemap