Verified torrent Mission Impossible Fallout 2018 NEW 720p HDCAM x264 [MW]


    Seeders : 91      Leechers : 87

Hash :9A00DF304D48B4C7B4A6B210F4B85675688B5AE3
Added :23 days ago by MovieFreakVerified torrent uploader in Movies
Size :1.3 GB
Stream :Watch Full Movie Online @ Movie4u
Share :








Warning! Do not Download Torrents Without a VPN!
Your IP Address is 185.162.9.168.   And Location is Netherlands, Naaldwijk
Your Internet Provider and Government can track your torrent Activity!  Hide your IP ADDRESS with a VPN!
We Strongly Recommend Using Best Cheapest VPN to Anonymize your Torrenting.

Note :

Please Update (Trackers Info) Before Start Torrents Downloading to See Updated Seeders And Leechers for Batter Download Speed.

Trackers List

Tracker NameLast CheckStatusSeedersLeechers
udp://tracker.coppersurfer.tk:6969/announce22 days agosuccess9187
udp://tracker.coppersurfer.tk:80/announce22 days agosuccess9187
udp://tracker.pirateparty.gr:6969/announce22 days agosuccess9187
udp://tracker.opentrackr.org:1337/announce22 days agosuccess6257
udp://tracker.tiny-vps.com:6969/announce22 days agosuccess4236
udp://public.popcorn-tracker.org:6969/announce22 days agosuccess3937
udp://open.stealth.si:80/announce22 days agosuccess3442
udp://tracker.vanitycore.co:6969/announce22 days agosuccess3334
http://retracker.spb.ru/announce22 days agosuccess77
udp://thetracker.org:80/announce22 days agosuccess65
udp://tracker.internetwarriors.net:1337/announce22 days agosuccess65
udp://retracker.lanta-net.ru:2710/announce22 days agosuccess56
udp://bt.xxx-tracker.com:2710/announce22 days agosuccess45
http://t.nyaatracker.com:80/announce22 days agosuccess26
http://tracker.tfile.me:80/announce22 days agosuccess00
udp://exodus.desync.com:6969/announce22 days agosuccess00
http://share.camoe.cn:8080/announce22 days agosuccess00
udp://tracker.torrent.eu.org:451/announce22 days agosuccess00
udp://tracker.torrent.eu.org:45122 days agosuccess00




Torrent File Content (1 file)


Mission Impossible Fallout 2018 NEW 720p HDCAM x264 [MW]
     Mission Impossible Fallout 2018 NEW 720p HDCAM x264 [MW].mkv -
1.3 GB



Description




[url=http://pichub.site/image/OfwGZ]
http://pichub.site/images/2018/07/30/mi.md.jpg
[/url]


General
Format : Matroska
Format version : Version 4 / Version 2
File size : 1.30 GiB
Duration : 2 h 20 min
Overall bit rate : 1 327 kb/s

Video
ID : 1
Format : AVC
Format/Info : Advanced Video Codec
Format profile : [email protected]
Format settings : CABAC / 4 Ref Frames
Format settings, CABAC : Yes
Format settings, RefFrames : 4 frames
Codec ID : V_MPEG4/ISO/AVC
Duration : 2 h 20 min
Bit rate : 1 200 kb/s
Width : 1 280 pixels
Height : 580 pixels
Display aspect ratio : 2.2:1
Frame rate mode : Constant
Frame rate : 29.970 (30000/1001) FPS
Color space : YUV
Chroma subsampling : 4:2:0
Bit depth : 8 bits
Scan type : Progressive
Bits/(Pixel*Frame) : 0.054
Stream size : 1.17 GiB (90%)
Writing library : x264 core 155 r2901 7d0ff22
Default : Yes
Forced : No

Audio
ID : 2
Format : AAC
Format/Info : Advanced Audio Codec
Format profile : LC
Codec ID : A_AAC-2
Duration : 2 h 20 min
Bit rate : 128 kb/s
Channel(s) : 2 channels
Channel positions : Front: L R
Sampling rate : 44.1 kHz
Frame rate : 43.066 FPS (1024 SPF)
Compression mode : Lossy
Stream size : 128 MiB (10%)
Language : English
Default : Yes
Forced : No


Click To Enlarge Image

[url=http://pichub.site/image/Ofk7D]
http://pichub.site/images/2018/07/30/00_00_46.md.jpg
[/url]
[url=http://pichub.site/image/OfhOI]
http://pichub.site/images/2018/07/30/00_16_15.md.jpg
[/url]
[url=http://pichub.site/image/OfyZg]
http://pichub.site/images/2018/07/30/00_46_02.md.jpg
[/url]
[url=http://pichub.site/image/OfiAX]
http://pichub.site/images/2018/07/30/00_51_30.md.jpg
[/url]
[url=http://pichub.site/image/Oft68]
http://pichub.site/images/2018/07/30/01_09_19.md.jpg
[/url]
[url=http://pichub.site/image/Of8fJ]
http://pichub.site/images/2018/07/30/01_11_31.md.jpg
[/url]
[url=http://pichub.site/image/OfAC5]
http://pichub.site/images/2018/07/30/01_21_22.md.jpg
[/url]


Related torrents

Torrent NameAddedSizeSeedLeechHealth
24 days ago - in Movies1.65 GB11151
Verified torrent
24 days ago - in Movies2.46 GB6465
Verified torrent
24 days ago - in Movies2.46 GB373412
25 days ago - in Movies1.38 GB5035
Verified torrent
25 days ago - in Movies1.38 GB291275
26 days ago - in Movies1.35 GB66

Note :

Feel free to post any comments about this torrent, including links to Subtitle, samples, screenshots, or any other relevant information. Please Dont Download anything from Comments, And Links to Streaming Sites like Watch Online Mission Impossible Fallout 2018 NEW 720p HDCAM x264 [MW] Full Movie, Fmovies, 123Movies, Putlocker, Netflix, etc.

Comments (0 Comments)




Please login or create a FREE account to post comments

Latest Searches

Sitemap