Verified torrent Ant-Man and The Wasp 2018 NEW 720p HDCAM x264 [MW]


    Seeders : 69      Leechers : 14

Hash :FF86E510BD69ACFE934E264219A1FD54B0BDB874
Added :25 days ago by MovieFreakVerified torrent uploader in Movies
Size :1.23 GB
Stream :Watch Online Full Movie @ Movie4u
Share :









Warning! Do not Download Torrents Without a VPN!
Your IP Address is 185.162.9.168.   And Location is Netherlands, Naaldwijk
Your Internet Provider and Government can track your torrent Activity!  Hide your IP ADDRESS with a VPN!
We Strongly Recommend Using Best Cheap VPN to Anonymize your Torrenting.

Note :

Please Update (Trackers Info) Before Start Torrents Downloading to See Updated Seeders And Leechers for Batter Download Speed.

Trackers List

Tracker NameLast CheckStatusSeedersLeechers
udp://tracker.coppersurfer.tk:80/announce12 days agosuccess6914
udp://tracker.coppersurfer.tk:6969/announce12 days agosuccess6914
udp://tracker.pirateparty.gr:6969/announce12 days agosuccess6914
udp://tracker.opentrackr.org:1337/announce12 days agosuccess503
udp://public.popcorn-tracker.org:6969/announce12 days agosuccess293
udp://tracker.internetwarriors.net:1337/announce12 days agosuccess21
udp://tracker.tiny-vps.com:6969/announce12 days agosuccess22
udp://tracker.vanitycore.co:6969/announce12 days agosuccess12
udp://open.stealth.si:80/announce12 days agosuccess10
http://retracker.spb.ru/announce12 days agosuccess12
http://9.rarbg.to:2730/announce25 days agosuccess111
http://public.popcorn-tracker.org:6969/announce25 days agosuccess18
http://9.rarbg.me:2730/announce25 days agosuccess111
http://tracker.opentrackr.org/announce12 days agosuccess00
udp://exodus.desync.com:6969/announce12 days agosuccess00




Torrent File Content (1 file)


Ant-Man and The Wasp 2018 NEW 720p HDCAM x264 [MW]
     Ant-Man and The Wasp 2018 NEW 720p HDCAM x264 [MW].mkv -
1.23 GB



Description




[url=http://pichub.site/image/YeXzT]
http://pichub.site/images/2018/07/08/as.md.jpg
[/url]


General
Format : Matroska
Format version : Version 4 / Version 2
File size : 1.23 GiB
Duration : 1 h 48 min
Overall bit rate : 1 628 kb/s

Video
ID : 1
Format : AVC
Format/Info : Advanced Video Codec
Format profile : [email protected]
Format settings : CABAC / 4 Ref Frames
Format settings, CABAC : Yes
Format settings, RefFrames : 4 frames
Codec ID : V_MPEG4/ISO/AVC
Duration : 1 h 48 min
Bit rate : 1 500 kb/s
Width : 1 168 pixels
Height : 508 pixels
Display aspect ratio : 2.25:1
Frame rate mode : Constant
Frame rate : 29.970 (30000/1001) FPS
Color space : YUV
Chroma subsampling : 4:2:0
Bit depth : 8 bits
Scan type : Progressive
Bits/(Pixel*Frame) : 0.084
Stream size : 1.13 GiB (92%)
Writing library : x264 core 155 r2901 7d0ff22
Default : Yes
Forced : No
Color range : Limited

Audio
ID : 2
Format : AAC
Format/Info : Advanced Audio Codec
Format profile : HE-AAC / LC
Format settings : Explicit
Codec ID : A_AAC-2
Duration : 1 h 48 min
Bit rate : 127 kb/s
Channel(s) : 2 channels
Channel positions : Front: L R
Sampling rate : 48.0 kHz / 24.0 kHz
Frame rate : 23.438 FPS (1024 SPF)
Compression mode : Lossy
Stream size : 98.1 MiB (8%)
Language : English
Default : Yes
Forced : No


Click To Enlarge Image
[url=http://pichub.site/image/YqD1X]
http://pichub.site/images/2018/07/09/00_08_08.md.jpg
[/url]
[url=http://pichub.site/image/YqSUI]
http://pichub.site/images/2018/07/09/00_15_54.md.jpg
[/url]
[url=http://pichub.site/image/YqdR8]
http://pichub.site/images/2018/07/09/00_34_00.md.jpg
[/url]
[url=http://pichub.site/image/Yq7KJ]
http://pichub.site/images/2018/07/09/00_54_02.md.jpg
[/url]
[url=http://pichub.site/image/YqkJh]
http://pichub.site/images/2018/07/09/01_13_38.md.jpg
[/url]
[url=http://pichub.site/image/YqVP5]
http://pichub.site/images/2018/07/09/01_21_21.md.jpg
[/url]
[url=http://pichub.site/image/Yqwhj]
http://pichub.site/images/2018/07/09/01_36_20.md.jpg
[/url]


Related torrents

Torrent NameAddedSizeSeedLeechHealth
27 days ago - in Movies848.68 MB2321
Verified torrent
28 days ago - in Movies769.03 MB144
28 days ago - in Movies769.03 MB93
Verified torrent
27 days ago - in Movies1.27 GB9720
28 days ago - in Movies971.83 MB2111
28 days ago - in Movies969.9 MB116

Note :

Feel free to post any comments about this torrent, including links to Subtitle, samples, screenshots, or any other relevant information. Please Dont Download anything from Comments, And Links to Streaming Sites like Watch Online Ant-Man and The Wasp 2018 NEW 720p HDCAM x264 [MW] Full Movie, Fmovies, 123Movies, Putlocker, Netflix, etc.

Comments (0 Comments)




Please login or create a FREE account to post comments

Latest Searches

Sitemap